2013Zone For Latest Downloads

 
     
 
Legal Downloads » Torrents » Men in Black III [2012] DVDRIP.AC3.XViD.MAX
Menu
Home Applications
Games Movies
Music TV Shows
Torrents Graphics

Sitemap

RSS
 
Advanced Search
Last News
Site Info
Top Contributors:
  1    supper88 32766
  2    admin 32747
  3    Whisky 10080
  4    Shark_ 8911
  5    creativelivenew 8706
  6    whathesupa 2799
  7    candymypost 840
  8    hvnteam 629
  9    vuong87 3


Articles:
  This Hour: 0
  Today: 0
  This Month: 16
  All Time: 515461


Torrents:
  Today: 0
  Yesterday: 0
  All Time: 156711


Membership:
  Registered Today :0
  This Hour:0
  This Month:0
  Total:14
  Banned:1

{online}
{inform_torrent}
Friend:
Full Download Scripts
Torrent Download
Trend
Trend

Search In Site

Torrents : Men in Black III [2012] DVDRIP.AC3.XViD.MAX
 

Torrent name:Men in Black III [2012] DVDRIP.AC3.XViD.MAX

Seeds:0

Leechers:0

Health: 

Total size:800.24 MB

Torrent added:2012-06-05 16:37:56

Info hash:E082C357E829FFD7C3B6B2FF4A0A4C68CB9EF6FA


Description:
 

http://imageshack.us/photo/my-images/822/58773998.jpg/ 
http://imageshack.us/photo/my-images/341/35652223.jpg/ 
http://imageshack.us/photo/my-images/194/76352107.jpg/ 
http://imageshack.us/photo/my-images/252/82030982.jpg/ 
http://imageshack.us/photo/my-images/440/21436974.jpg/ 
http://imageshack.us/photo/my-images/811/78942089.jpg/ 
http://imageshack.us/photo/my-images/31/12488980.jpg/ 
http://imageshack.us/photo/my-images/341/42528384.jpg/ 
http://imageshack.us/photo/my-images/338/36566162.jpg/ 
http://imageshack.us/photo/my-images/812/41867037.jpg/


Details:
-------

Video
ID                               : 0
Format                           : MPEG-4 Visual
Format profile                   : [email protected]
Format settings, BVOP            : Yes
Format settings, QPel            : No
Format settings, GMC             : No warppoints
Format settings, Matrix          : Custom
Codec ID                         : XVID
Codec ID/Hint                    : XviD
Duration                         : 1h 41mn
Bit rate                         : 1 625 Kbps
Width                            : 720 pixels
Height                           : 304 pixels
Display aspect ratio             : 2.35:1
Frame rate                       : 23.976 fps
Resolution                       : 24 bits
Colorimetry                      : 4:2:0
Scan type                        : Progressive
Bits/(Pixel*Frame)               : 0.310
Stream size                      : 691 MiB (99%)
Writing library                  : XviD 58

Audio
ID                               : 1
Format                           : AC-3
Format/Info                      : Audio Coding 3
Codec ID                         : 2000
Duration                         : 1h 41mn
Bit rate mode                    : Constant
Bit rate                         : 192 Kbps
Channel(s)                       : 2 channels
Channel positions                : L R
Sampling rate                    : 48.0 KHz
Stream size                      : 147 MiB (11%)
Alignment                        : Aligned on interleaves
Interleave, duration             : 64 ms (1.53 video frames)
Interleave, preload duration     : 192 ms
-----------------------------------------

Download utorrent client from http://www.utorrent.com/ before downloading from below magnet link


Men in Black III [2012] DVDRIP.AC3.XViD.MAX Fast Download



 
 
 
Dear visitor, you went to the site as an unregistered user. We encourage you to register or enter the site under your name.
 
   
 
 (Votes #: 0)